Hrithik Roshan | TheVideo | Co Wiecie O Swoich Dziadkach? 2017 8.5
Rss
Filmsofts.com - Welcome to our Filmsofts.com -
/ Your screen resolution: px / Your IP Address: {ip}

FilmSofts!

Smash Hits 5 (2017) Video Songs 1080p BluRay x264 DTSHD 5.1 [DDR-Exclusive]

15-02-2017, 10:06

Smash Hits 5 (2017) Video Songs 1080p BluRay x264 DTSHD 5.1 [DDR-Exclusive]





Format : MatroskaFile size : 15.4 GiBDuration : 2 h 23 minOverall bit rate : 15.4 Mb/sVideoFormat : AVCFormat profile : [email protected] rate : 10.5 Mb/sWidth : 1 920 pixelsHeight : 1 080 pixelsDisplay aspect ratio : 16:9Frame rate : 24.000 FPSBit depth : 8 bitsStream size : 10.5 GiB (68%Color primaries : BT.709Audio #1Format : DTSHD-MA 5.1Bit rate : 4 866 kb/s / 1 509 kb/sBit depth : 24 bitsStream size : 4.04 GiB (25%)Language : HindiChapters : YESMenu00:00:00.000 : ISHQ Mubarak - Tum Bin 200:05:05.167 : Wajah Tum Ho00:07:23.875 : Lo Maan Liya - Raaz Reboot00:12:15.750 : Rock On Revisited00:15:20.583 : Jab Tak - MSDhoni The Untold Story00:19:00.542 : Soch Na Sake - AirLift00:23:32.500 : Mujhko Barsaat Bana Lo - Junooniyat00:26:10.500 : Sab Tera - Bhaagi00:28:56.917 : Salamat - Sarbjit00:31:04.583 : Bol Do Na Zara - Azhar00:34:42.417 : High Heels Te Natchche - Ki & Ka00:37:40.667 : Sau Tarah Ke - Dishoom00:41:38.500 : Ki Kariye Nachna Aoanda Nahin00:44:55.958 : O janiya - Force 200:47:33.125 : Do Chaar Din00:51:37.000 : Befikre00:55:35.833 : Dillagi00:59:48.208 : GF BF01:04:08.000 : Main Rahoon Ya Na Rahoon01:08:48.125 : Dekh Lena - Tum Bin 201:12:00.458 : Menu Kehn De - Aap Se Mausiiquii01:16:08.833 : Wajah Tum Ho - Hate Story 301:20:44.375 : Pyar Ki - Housefull 301:24:36.375 : Kaun Tujh - M.S.Dhoni01:28:24.208 : Dharkhaast - Shivaay01:32:03.000 : Sanam Re01:36:50.083 : Teen Gawah Hain Isqh Ke - Mirzya - Dare To Love01:39:59.458 : Tere Bin - Wazir01:43:19.708 : Rehnuma - Rocky Handsome01:46:57.292 : Itni Si Baat Hain - Azhar01:50:27.625 : Gal Ban Gayi01:54:38.167 : Cham Cham - Baaghi01:58:38.875 : Jeete Hain Chal - Neerja02:00:12.958 : Awargi - Love Games02:05:23.500 : Ijazat - One Night Stand02:08:00.417 : Rajj Rajj Ke - Akira02:10:06.500 : Dil Cheez Tujhe Dedi - Airlift02:13:14.167 : Ji Huzoori - Ki & Ka02:15:36.458 : Rail Gaddi - Tutak Tutak Tutiya02:18:12.417 : Main Woh Chaand - Teraa Surroor


Smash Hits 5 (2017) Video Songs 1080p BluRay x264 DTSHD 5.1 [DDR-Exclusive]
Smash Hits 5 (2017) Video Songs 1080p BluRay x264 DTSHD 5.1 [DDR-Exclusive]
Smash Hits 5 (2017) Video Songs 1080p BluRay x264 DTSHD 5.1 [DDR-Exclusive]
Smash Hits 5 (2017) Video Songs 1080p BluRay x264 DTSHD 5.1 [DDR-Exclusive]
Smash Hits 5 (2017) Video Songs 1080p BluRay x264 DTSHD 5.1 [DDR-Exclusive]
Smash Hits 5 (2017) Video Songs 1080p BluRay x264 DTSHD 5.1 [DDR-Exclusive]
Smash Hits 5 (2017) Video Songs 1080p BluRay x264 DTSHD 5.1 [DDR-Exclusive]
Smash Hits 5 (2017) Video Songs 1080p BluRay x264 DTSHD 5.1 [DDR-Exclusive]
[B]
SINGLE DIRECT FAST LINKS[/B]

http://www.heroupload.com/2c5b5bd3aacb7530/Smash.Hits.5.2017.1080p.BluRay.x264.DTSHD.5.1-DDR.mkv


[B]2GB LINKS[/B]


http://www.heroupload.com/5f8ea6678575cdd2/Smash.Hits.5.2017.1080p.BluRay.x264.DTSHD.5.1-DDR.part1.rarhttp://www.heroupload.com/c084eee4d535ebb4/Smash.Hits.5.2017.1080p.BluRay.x264.DTSHD.5.1-DDR.part2.rarhttp://www.heroupload.com/55385f89f9dbcdda/Smash.Hits.5.2017.1080p.BluRay.x264.DTSHD.5.1-DDR.part3.rarhttp://www.heroupload.com/cd18ffd93a927246/Smash.Hits.5.2017.1080p.BluRay.x264.DTSHD.5.1-DDR.part4.rarhttp://www.heroupload.com/9d5bca95ac584afa/Smash.Hits.5.2017.1080p.BluRay.x264.DTSHD.5.1-DDR.part5.rarhttp://www.heroupload.com/6a2185bca56e0521/Smash.Hits.5.2017.1080p.BluRay.x264.DTSHD.5.1-DDR.part6.rarhttp://www.heroupload.com/41c1ead08a07f0e9/Smash.Hits.5.2017.1080p.BluRay.x264.DTSHD.5.1-DDR.part7.rarhttp://www.heroupload.com/b08162309691842e/Smash.Hits.5.2017.1080p.BluRay.x264.DTSHD.5.1-DDR.part8.rar



Help us by donating us through bitcoin to continute enjoying - 12xSXaYDMEUNSVEtU5xbECbLd1c2sUYQ4k


Dear visitor, you are browsing our website as Guest.
We strongly recommend you to register and login to view hidden contents.
wroser Category: Music » Music Videos

Important: if the page does not display news or part please disable your advertising. The problem may be due to the fact that the script site responds to this type of program.
You can also report a problem or an error and read the answers.